osu file format v14

[General]
AudioFilename: Ring of Fortune.mp3
AudioLeadIn: 1500
PreviewTime: 68996
Countdown: 0
SampleSet: Soft
StackLeniency: 0.7
Mode: 0
LetterboxInBreaks: 1
WidescreenStoryboard: 0

[Editor]
Bookmarks: 3745,100046,131969,257071
DistanceSpacing: 1.5
BeatDivisor: 2
GridSize: 4
TimelineZoom: 1

[Metadata]
Title:Ring of Fortune
TitleUnicode:Ring of Fortune
Artist:Eri Sasaki
ArtistUnicode:佐々木恵梨
Creator:CelsiusLK
Version:Easy
Source:プラスティック・メモリーズ
Tags:plastic memories opening full plamemo
BeatmapID:717630
BeatmapSetID:317236

[Difficulty]
HPDrainRate:3
CircleSize:3
OverallDifficulty:3
ApproachRate:3
SliderMultiplier:0.9
SliderTickRate:1

[Events]
//Background and Video events
0,0,"sadtim.jpg",0,0
//Break Periods
2,178088,188790
//Storyboard Layer 0 (Background)
//Storyboard Layer 1 (Fail)
//Storyboard Layer 2 (Pass)
//Storyboard Layer 3 (Foreground)
//Storyboard Sound Samples

[TimingPoints]
1313,405.405405405405,4,2,1,40,1,0
7799,-100,4,2,1,60,0,0
10231,379.746835443038,4,2,2,60,1,0
10990,379.746835443038,4,2,2,75,1,0
25230,-100,4,2,2,75,0,0
27698,-100,4,2,1,45,0,0
39850,-100,4,2,2,50,0,0
52002,-100,4,2,2,60,0,0
58078,-100,4,2,2,50,0,0
69850,-100,4,2,2,40,0,0
70230,-100,4,2,2,90,0,1
97572,-100,4,2,2,75,0,0
105736,-100,4,2,2,60,0,0
108205,-100,4,2,1,45,0,0
120357,-100,4,2,2,50,0,0
132508,-100,4,2,2,60,0,0
138584,-100,4,2,2,50,0,0
150357,-100,4,2,2,40,0,0
150736,-100,4,2,2,90,0,1
177888,-100,4,2,1,55,0,0
189660,-100,4,2,2,55,0,0
190230,-100,4,2,2,50,0,0
196306,-100,4,2,2,60,0,0
202382,-100,4,2,1,40,0,0
208458,-100,4,2,2,50,0,0
212825,-100,4,2,2,75,0,0
214534,-100,4,2,2,90,0,1
241876,-100,4,2,2,90,0,0
250040,-100,4,2,1,75,0,0
251084,-100,4,2,1,5,0,0

[Colours]
Combo1 : 255,0,128
Combo2 : 0,128,255
Combo3 : 255,145,34
Combo4 : 255,47,47

[HitObjects]
160,168,1313,6,0,B|197:130|248:114|296:120,1,135,2|2,0:0|0:0,0:0:0:0:
364,328,2934,2,0,L|180:316,1,180,2|4,0:0|0:1,0:0:0:0:
36,212,4556,6,0,B|26:162|43:114|76:80,1,135,2|2,0:0|0:0,0:0:0:0:
160,68,5569,1,2,0:0:0:0:
292,100,6177,2,0,L|276:208,1,90,2|0,0:0|0:0,0:0:0:0:
200,232,6988,2,0,L|216:340,1,90,2|0,0:0|0:0,0:0:0:0:
304,312,7799,6,0,B|356:292|356:292|464:304,2,135,4|2|2,0:0|0:0|0:0,0:0:0:0:
213,321,9421,2,0,B|181:322|152:311|128:293,2,90,4|0|0,0:0|0:0|0:0,0:0:0:0:
304,312,10610,1,8,0:0:0:0:
328,224,10990,6,0,L|348:64,1,135,4|4,0:0|0:0,0:0:0:0:
464,24,12129,2,0,L|447:157,1,135,4|4,0:0|0:0,0:0:0:0:
348,252,13268,2,0,B|292:260|292:260|240:252,1,90,4|4,0:0|0:0,0:0:0:0:
184,204,14027,6,0,B|177:166|190:129|216:104,1,90,4|8,0:0|0:0,0:0:0:0:
280,72,14787,2,0,L|432:56,2,135,2|2|8,0:0|0:0|0:0,0:0:0:0:
268,160,16306,2,0,L|284:260,1,90,2|8,0:0|0:0,0:0:0:0:
208,296,17065,6,0,B|180:264|180:264|172:204,1,90,2|8,0:0|0:0,0:0:0:0:
152,132,17825,2,0,L|88:144,1,45,2|2,0:0|0:0,0:0:0:0:
20,132,18395,2,0,B|4:182|8:233|28:277,1,135,4|8,0:0|0:0,0:0:0:0:
100,308,19344,1,2,0:0:0:0:
188,316,19724,1,8,0:0:0:0:
272,284,20103,6,0,L|404:276,2,90,4|8|2,0:0|0:0|0:0,0:0:0:0:
208,164,21433,2,0,B|176:100|220:100|196:24,1,135,4|8,0:0|0:0,0:0:0:0:
108,40,22382,1,2,0:0:0:0:
64,120,22762,1,8,0:0:0:0:
40,208,23141,6,0,B|37:259|72:302|119:312,1,135,4|4,0:0|0:0,0:0:0:0:
200,288,24091,2,0,B|248:265|300:264,1,90,4|4,0:0|0:0,0:0:0:0:
376,272,24850,1,4,0:0:0:0:
456,236,25230,6,0,B|504:201|493:122|423:97|372:128|361:171,1,225,4|0,0:0|0:0,0:0:0:0:
240,292,26939,2,0,B|201:310|158:307|124:288,1,90,8|8,0:3|0:3,0:0:0:0:
104,224,27698,6,0,B|88:176|104:144|104:144|152:164|208:140,1,180,4|2,0:0|0:0,0:0:0:0:
316,72,29027,2,0,B|357:71|393:98|407:136|400:171,1,135,2|0,0:0|0:0,0:0:0:0:
380,244,29977,1,0,0:0:0:0:
304,196,30357,1,0,0:0:0:0:
228,244,30736,6,0,B|192:259|152:246|130:215|128:181,1,135,2|2,0:0|0:0,0:0:0:0:
324,60,32255,2,0,B|384:84|384:84|396:164,1,135,2|2,0:0|0:0,0:0:0:0:
380,244,33205,1,0,0:0:0:0:
260,180,33774,6,0,B|213:167|165:197|156:244,1,135,2|2,0:0|0:0,0:0:0:0:
380,244,35293,2,0,L|424:96,2,135,2|2|2,0:0|0:0|0:0,0:0:0:0:
300,284,36812,6,0,B|236:284|192:320|192:320|128:288,1,180,2|2,0:0|0:0,0:0:0:0:
60,128,38331,1,2,0:0:0:0:
240,148,39091,2,0,L|336:136,1,90,2|12,0:0|0:3,0:0:0:0:
412,104,39850,6,0,B|428:137|430:173|420:204,1,90,4|2,0:0|0:0,0:0:0:0:
380,272,40610,2,0,L|290:283,1,90,2|2,0:0|0:0,0:0:0:0:
216,236,41369,2,0,L|126:247,2,90,2|2|2,0:0|0:0|0:0,0:0:0:0:
240,148,42508,1,2,0:0:0:0:
292,76,42888,6,0,B|335:46|393:55|428:96|432:142,1,180,2|2,0:0|0:0,0:0:0:0:
332,284,44407,2,0,B|288:312|288:312|152:296,1,180,2|2,0:0|0:0,0:0:0:0:
88,248,45546,1,2,0:0:0:0:
124,164,45926,6,0,L|112:56,1,90,2|2,0:0|0:0,0:0:0:0:
200,52,46686,2,0,B|226:78|263:86|296:76,1,90,2|2,0:0|0:0,0:0:0:0:
360,36,47445,2,0,B|387:56|398:89|392:119,1,90,2|2,0:0|0:0,0:0:0:0:
344,192,48205,1,2,0:0:0:0:
260,228,48584,1,2,0:0:0:0:
172,212,48964,6,0,L|152:52,2,135,2|2|2,0:0|0:0|0:0,0:0:0:0:
144,300,50483,1,2,0:0:0:0:
220,348,50863,1,2,0:0:0:0:
304,320,51243,2,0,B|333:300|365:289|397:288,1,90,8|8,0:0|0:0,0:0:0:0:
472,312,52002,6,0,L|488:212,1,90,4|2,0:0|0:0,0:0:0:0:
436,148,52762,2,0,L|420:48,1,90,8|0,0:0|0:0,0:0:0:0:
332,48,53521,2,0,B|297:39|262:43|231:56,1,90,2|0,0:0|0:0,0:0:0:0:
164,92,54281,2,0,B|182:124|185:160|176:192,1,90,2|2,0:0|0:0,0:0:0:0:
124,252,55040,6,0,B|106:284|103:320|112:352,1,90,4|2,0:0|0:0,0:0:0:0:
200,352,55800,2,0,B|247:317|304:308,1,90,8|0,0:0|0:0,0:0:0:0:
368,324,56559,2,0,B|402:310|425:281|432:248,1,90,0|0,0:0|0:0,0:0:0:0:
412,172,57319,1,8,0:3:0:0:
348,112,57698,1,8,0:0:0:0:
292,184,58078,6,0,L|176:180,1,90,4|2,0:0|0:0,0:0:0:0:
116,160,58838,2,0,B|104:125|108:89|124:60,1,90,2|2,0:0|0:0,0:0:0:0:
196,24,59597,1,2,0:0:0:0:
280,56,59977,2,0,L|392:44,2,90,2|2|8,0:0|0:2|0:0,0:0:0:0:
240,136,61116,6,0,B|243:196|272:248,1,90,6|2,0:0|0:0,0:0:0:0:
344,260,61876,2,0,B|341:320|312:372,1,90,2|2,0:0|0:0,0:0:0:0:
236,332,62635,2,0,B|181:322|128:336,1,90,2|2,0:0|0:0,0:0:0:0:
64,364,63395,1,2,0:0:0:0:
24,284,63774,1,12,0:3:0:0:
56,200,64154,6,0,L|60:48,1,135,4|4,0:0|0:0,0:0:0:0:
144,36,65103,1,4,0:0:0:0:
228,72,65483,2,0,B|264:88|303:88|336:76,1,90,4|2,0:0|0:0,0:0:0:0:
400,48,66243,2,0,B|441:57|469:92|472:131,1,90,4|8,0:0|0:3,0:0:0:0:
464,196,67002,6,0,B|428:216|428:216|296:220,1,135,4|8,0:0|0:0,0:0:0:0:
252,184,67952,2,0,B|220:224|220:224|236:264|216:308,1,135,8|4,0:0|0:0,0:0:0:0:
84,284,69091,6,0,B|56:324|44:372,2,90,12|0|0,0:0|0:0|0:0,0:0:0:0:
156,228,70230,6,0,B|172:181|172:134|160:90,1,135,4|0,0:0|0:0,0:0:0:0:
104,28,71179,1,2,0:0:0:0:
192,12,71559,2,0,B|250:5|305:21|349:53,1,135,4|8,0:0|0:0,0:0:0:0:
392,92,72508,2,0,L|408:188,1,90,2|8,0:0|0:0,0:0:0:0:
388,268,73268,6,0,B|336:319|257:323|201:285,1,180,4|2,0:0|0:0,0:0:0:0:
100,244,74597,2,0,B|76:192|76:192|116:192|160:160,1,135,4|8,0:0|0:0,0:0:0:0:
200,92,75546,1,2,0:0:0:0:
252,20,75926,1,8,0:0:0:0:
296,100,76306,6,0,B|320:140|320:140|368:168,1,90,4|8,0:0|0:0,0:0:0:0:
440,196,77065,2,0,B|488:168|514:119|516:69,2,135,2|4|8,0:0|0:0|0:0,0:0:0:0:
368,252,78584,1,2,0:0:0:0:
284,284,78964,1,8,0:0:0:0:
196,260,79344,6,0,B|170:280|154:307|148:337,1,90,4|8,0:0|0:0,0:0:0:0:
60,340,80103,2,0,L|40:272,1,45,2|2,0:0|0:0,0:0:0:0:
20,212,80673,2,0,B|-15:174|-11:113|32:77|78:76,1,180,4|4,0:0|0:0,0:0:0:0:
160,100,81812,2,0,L|176:168,1,45,2|8,0:0|0:0,0:0:0:0:
192,232,82382,6,0,B|246:247|300:236|342:208,1,135,4|2,0:0|0:0,0:0:0:0:
352,132,83331,1,2,0:0:0:0:
436,164,83711,2,0,L|432:308,1,135,4|8,0:0|0:0,0:0:0:0:
344,324,84660,2,0,B|295:314|248:328,1,90,2|8,0:0|0:0,0:0:0:0:
164,336,85420,6,0,L|149:247,1,90,4|8,0:0|0:0,0:0:0:0:
140,156,86179,2,0,B|177:123|232:125|267:155,1,135,2|4,0:0|0:0,0:0:0:0:
280,240,87129,2,0,B|302:268|336:280|368:276,1,90,4|4,0:0|0:0,0:0:0:0:
448,264,87888,1,4,0:0:0:0:
484,136,88458,6,0,L|468:-8,1,135,4|4,0:0|0:0,0:0:0:0:
384,36,89407,1,4,0:0:0:0:
264,100,89977,2,0,L|129:110,1,135,4|4,0:0|0:0,0:0:0:0:
60,168,90926,1,4,0:0:0:0:
76,256,91306,6,0,B|102:304|160:321|207:300,1,135,4|8,0:0|0:0,0:0:0:0:
276,280,92255,2,0,L|432:292,2,135,2|4|8,0:0|0:0|0:0,0:0:0:0:
204,228,93774,1,2,0:0:0:0:
132,112,94344,6,0,B|84:112|45:147|36:191,1,135,4|8,0:0|0:0,0:0:0:0:
60,276,95293,2,0,L|212:264,1,135,2|4,0:0|0:0,0:0:0:0:
276,232,96243,6,0,B|315:208|361:204,1,90,4|4,0:0|0:0,0:0:0:0:
444,240,97002,2,0,L|456:184,1,45,4|2,0:0|0:0,0:0:0:0:
412,116,97572,6,0,B|419:79|442:49|472:32,2,90,4|8|2,0:0|0:0|0:0,0:0:0:0:
356,240,98901,2,0,B|352:282|319:313|278:319|245:304,1,135,2|8,0:0|0:0,0:0:0:0:
180,268,99850,1,2,0:0:0:0:
128,192,100230,1,8,0:0:0:0:
144,104,100610,6,0,B|166:72|198:52|233:44,1,90,2|8,0:0|0:0,0:0:0:0:
300,80,101369,1,2,0:0:0:0:
428,44,101939,2,0,B|451:94|454:148|440:197,1,135,2|8,0:0|0:0,0:0:0:0:
416,260,102888,2,0,L|316:268,1,90,2|8,0:0|0:0,0:0:0:0:
260,208,103648,6,0,B|216:184|216:184|180:204|124:200,1,135,4|4,0:0|0:0,0:0:0:0:
56,156,104597,1,4,0:0:0:0:
104,80,104977,2,0,B|134:63|166:57|197:60,1,90,4|4,0:0|0:0,0:0:0:0:
280,72,105736,6,0,B|384:128|384:40|504:104,1,225,4|0,0:0|0:0,0:0:0:0:
444,272,107445,2,0,L|348:280,1,90,8|8,0:3|0:3,0:0:0:0:
272,244,108205,6,0,B|221:234|172:248,1,90,4|0,0:0|0:0,0:0:0:0:
116,308,108964,1,2,0:0:0:0:
52,244,109344,1,0,0:0:0:0:
80,160,109724,2,0,B|116:112|116:112|168:144|240:124,1,180,2|2,0:0|0:0,0:0:0:0:
296,64,110863,1,2,0:0:0:0:
380,96,111243,6,0,L|364:240,1,135,2|2,0:0|0:0,0:0:0:0:
256,312,112382,1,0,0:0:0:0:
220,228,112762,2,0,B|172:184|172:184|120:208|100:276,1,180,2|0,0:0|0:0,0:0:0:0:
168,332,113901,1,0,0:0:0:0:
256,312,114281,6,0,L|416:328,2,135,2|2|2,0:0|0:0|0:0,0:0:0:0:
196,244,115800,2,0,B|171:196|167:143|180:95,2,135,2|2|2,0:0|0:0|0:0,0:0:0:0:
276,200,117319,6,0,B|307:179|345:178|376:192,1,90,2|0,0:0|0:0,0:0:0:0:
436,236,118078,2,0,B|469:218|490:186|496:152,1,90,2|0,0:0|0:0,0:0:0:0:
456,84,118838,2,0,L|352:92,1,90,2|2,0:0|0:0,0:0:0:0:
292,44,119597,1,2,0:0:0:0:
208,76,119977,1,12,0:3:0:0:
120,52,120357,6,0,B|95:79|88:115|96:148,1,90,4|0,0:0|0:0,0:0:0:0:
152,204,121116,2,0,L|148:300,1,90,8|2,0:0|0:0,0:0:0:0:
220,344,121876,2,0,L|309:332,1,90,2|0,0:0|0:0,0:0:0:0:
380,276,122635,1,2,0:0:0:0:
400,188,123015,1,8,0:0:0:0:
356,108,123395,6,0,B|300:72|228:86|189:135,1,180,2|8,0:0|0:0,0:0:0:0:
84,272,124914,2,0,B|48:224|48:224|68:96,1,180,2|2,0:0|0:0,0:0:0:0:
144,56,126053,1,8,0:0:0:0:
192,130,126433,6,0,B|247:167|320:150|355:97,1,180,2|8,0:0|0:0,0:0:0:0:
400,24,127572,1,2,0:0:0:0:
468,84,127952,2,0,B|471:178|460:269,1,180,2|8,0:0|0:0,0:0:0:0:
380,304,129091,1,2,0:0:0:0:
292,280,129471,6,0,L|158:301,2,135,2|2|4,0:0|0:0|0:0,0:0:0:0:
348,208,130990,1,2,0:0:0:0:
292,140,131369,1,2,0:0:0:0:
224,80,131749,2,0,B|166:81|112:100,1,90,8|8,0:0|0:0,0:0:0:0:
60,144,132508,6,0,L|76:240,1,90,4|2,0:0|0:0,0:0:0:0:
108,316,133268,2,0,B|146:339|188:348|229:344,1,90,8|0,0:0|0:0,0:0:0:0:
272,300,134027,1,2,0:0:0:0:
356,332,134407,1,8,0:0:0:0:
432,284,134787,2,0,L|418:194,1,90,8|2,0:0|0:0,0:0:0:0:
388,108,135546,6,0,B|339:107|296:128,1,90,4|2,0:0|0:0,0:0:0:0:
248,196,136306,2,0,B|214:201|182:193|156:176,1,90,8|0,0:0|0:0,0:0:0:0:
108,108,137065,2,0,L|-4:156,1,90,0|0,0:0|0:0,0:0:0:0:
28,232,137825,1,8,0:0:0:0:
88,300,138205,1,8,0:0:0:0:
172,328,138584,6,0,L|276:312,1,90,4|2,0:0|0:0,0:0:0:0:
320,244,139344,2,0,L|424:228,1,90,2|2,0:0|0:0,0:0:0:0:
472,164,140103,1,2,0:0:0:0:
412,100,140483,2,0,L|420:0,2,90,2|2|4,0:0|0:0|0:0,0:0:0:0:
384,184,141622,5,4,0:0:0:0:
320,244,142002,1,2,0:0:0:0:
244,292,142382,2,0,L|154:295,1,90,2|2,0:0|0:0,0:0:0:0:
76,252,143141,1,2,0:0:0:0:
36,172,143521,2,0,B|19:139|13:104|16:71,2,90,2|2|12,0:0|0:0|0:3,0:0:0:0:
128,168,144660,6,0,B|170:143|217:136|261:143,1,135,4|4,0:0|0:0,0:0:0:0:
344,168,145610,1,4,0:0:0:0:
420,124,145990,2,0,B|468:120|468:120|512:160,1,90,4|4,0:0|0:0,0:0:0:0:
512,236,146749,2,0,B|490:267|455:282|420:280,1,90,4|2,0:0|0:0,0:0:0:0:
348,264,147508,6,0,B|304:264|268:288|268:288|208:252,1,135,4|8,0:0|0:0,0:0:0:0:
140,228,148458,2,0,B|108:288|108:288|40:336,2,135,8|4|4,0:0|0:0|0:0,0:0:0:0:
132,140,149977,1,0,0:0:0:0:
96,56,150357,1,0,0:0:0:0:
184,64,150736,6,0,L|328:56,1,135,4|2,0:0|0:0,0:0:0:0:
408,48,151686,1,2,0:0:0:0:
456,124,152065,2,0,B|476:171|477:220|464:265,1,135,4|8,0:0|0:0,0:0:0:0:
392,308,153015,1,2,0:0:0:0:
308,280,153395,1,8,0:0:0:0:
224,316,153774,6,0,B|178:343|121:335|84:298|72:253,1,180,4|2,0:0|0:0,0:0:0:0:
56,128,155103,2,0,B|116:100|116:100|189:108,1,135,4|8,0:0|0:0,0:0:0:0:
268,136,156053,2,0,B|306:139|341:128|369:108,1,90,2|8,0:0|0:0,0:0:0:0:
444,124,156812,6,0,L|436:224,1,90,4|8,0:0|0:0,0:0:0:0:
388,288,157572,2,0,B|344:336|344:336|248:348,2,135,2|4|8,0:0|0:0|0:0,0:0:0:0:
336,212,159091,1,2,0:0:0:0:
252,248,159471,1,8,0:0:0:0:
164,232,159850,6,0,B|144:200|135:165|136:131,1,90,4|8,0:0|0:0,0:0:0:0:
164,60,160610,2,0,L|224:44,1,45,2|2,0:0|0:0,0:0:0:0:
288,84,161179,2,0,B|352:88|396:56|396:56|396:96|416:132,1,180,4|4,0:0|0:0,0:0:0:0:
468,188,162319,2,0,L|464:252,1,45,2|8,0:0|0:0,0:0:0:0:
404,300,162888,6,0,B|364:330|316:337|272:324,1,135,4|2,0:0|0:0,0:0:0:0:
196,280,163838,1,2,0:0:0:0:
112,312,164217,2,0,B|79:263|74:203|92:152,1,135,4|8,0:0|0:0,0:0:0:0:
156,128,165167,1,2,0:0:0:0:
244,148,165546,1,8,0:0:0:0:
320,100,165926,6,0,L|415:105,1,90,4|8,0:0|0:0,0:0:0:0:
468,172,166686,2,0,B|484:224|478:276|456:321,1,135,2|4,0:0|0:0,0:0:0:0:
376,280,167635,2,0,B|336:280|336:280|286:292,1,90,4|4,0:0|0:0,0:0:0:0:
208,336,168395,1,4,0:0:0:0:
80,300,168964,6,0,L|64:152,1,135,4|4,0:0|0:0,0:0:0:0:
104,84,169914,1,4,0:0:0:0:
232,120,170483,2,0,B|283:136|335:136|382:123,1,135,4|4,0:0|0:0,0:0:0:0:
448,92,171433,1,4,0:0:0:0:
484,176,171812,6,0,B|496:256|496:256|472:328,1,135,4|8,0:0|0:0,0:0:0:0:
396,268,172762,2,0,B|347:260|300:272|264:298,1,135,0|4,0:0|0:0,0:0:0:0:
184,332,173711,2,0,L|168:288,1,45,2|8,0:0|0:0,0:0:0:0:
104,224,174281,6,0,B|51:215|18:163|28:113,2,135,0|4|8,0:0|0:0|0:0,0:0:0:0:
184,184,175800,2,0,B|232:166|283:182|313:218,1,135,2|4,0:0|0:0,0:0:0:0:
364,284,176749,5,4,0:0:0:0:
428,224,177129,2,0,L|448:116,1,90,4|8,0:0|0:0,0:0:0:0:
392,60,177888,1,4,0:0:0:0:
216,192,190230,6,0,B|261:185|305:193,1,90,4|2,0:0|0:0,0:0:0:0:
376,252,190990,2,0,B|369:287|346:314|316:328,1,90,2|2,0:0|0:0,0:0:0:0:
236,304,191749,1,2,0:0:0:0:
148,328,192129,2,0,B|114:342|79:345|46:340,2,90,2|2|2,0:0|0:0|0:0,0:0:0:0:
172,240,193268,6,0,B|184:198|183:156|172:118,1,90,6|2,0:0|0:0,0:0:0:0:
172,60,194027,2,0,L|268:68,1,90,2|2,0:0|0:0,0:0:0:0:
352,48,194787,2,0,B|350:93|355:138,1,90,4|2,0:0|0:0,0:0:0:0:
420,200,195546,1,2,0:0:0:0:
400,288,195926,1,12,0:3:0:0:
316,260,196306,6,0,B|267:252|221:261|181:283,1,135,4|4,0:0|0:0,0:0:0:0:
108,332,197255,1,4,0:0:0:0:
44,268,197635,2,0,B|28:212|28:212|72:168|72:80,1,180,4|4,0:0|0:0,0:0:0:0:
240,40,199154,6,0,B|294:65|353:67|405:52,1,135,4|8,0:0|0:0,0:0:0:0:
460,44,200103,1,8,0:0:0:0:
480,176,200673,2,0,B|472:252|472:252|424:300,1,135,4|4,0:0|0:0,0:0:0:0:
340,284,201622,1,0,0:0:0:0:
256,316,202002,1,8,0:0:0:0:
172,284,202382,6,0,B|106:266|93:165|187:122|249:171|248:226,1,270,4|0,0:0|0:0,0:0:0:0:
256,316,203901,2,0,B|360:264|360:344|452:304|452:304|440:224,1,270,2|0,0:0|0:0,0:0:0:0:
424,148,205420,6,0,B|384:156|384:156|356:144|356:144|312:168|244:165,1,180,2|2,0:0|0:0,0:0:0:0:
144,84,206749,2,0,B|108:132|44:140|44:140|24:208|64:264|64:264|104:248|152:248,1,315,2|0,0:0|0:0,0:0:0:0:
216,268,208458,6,0,B|257:260|297:264|334:277,1,90,4|2,0:0|0:0,0:0:0:0:
396,288,209217,2,0,L|389:198,1,90,2|2,0:0|0:0,0:0:0:0:
344,120,209977,1,4,0:0:0:0:
404,52,210357,2,0,B|460:45|512:28,2,90,2|2|2,0:0|0:0|0:0,0:0:0:0:
316,32,211496,6,0,B|284:25|253:27|225:38,1,90,4|2,0:0|0:0,0:0:0:0:
160,96,212255,1,2,0:0:0:0:
28,76,212825,2,0,B|20:132|20:132|60:224,1,135,4|4,0:0|0:0,0:0:0:0:
136,236,213774,1,4,0:0:0:0:
220,208,214154,1,8,0:0:0:0:
308,196,214534,6,0,B|349:223|398:225|440:208,1,135,4|2,0:0|0:0,0:0:0:0:
476,128,215483,1,2,0:0:0:0:
432,48,215863,2,0,B|384:44|384:44|276:64,1,135,4|8,0:0|0:0,0:0:0:0:
224,108,216812,2,0,L|116:104,1,90,2|8,0:0|0:0,0:0:0:0:
60,156,217572,6,0,B|27:195|32:254|73:289|118:292,1,180,4|2,0:0|0:0,0:0:0:0:
232,224,218901,2,0,B|274:197|323:193|366:209,1,135,4|8,0:0|0:0,0:0:0:0:
440,252,219850,1,2,0:0:0:0:
476,168,220230,1,8,0:0:0:0:
456,80,220610,6,0,L|352:92,1,90,4|8,0:0|0:0,0:0:0:0:
280,64,221369,2,0,B|231:34|174:29|124:44,2,135,2|4|8,0:0|0:0|0:0,0:0:0:0:
300,152,222888,1,2,0:0:0:0:
252,228,223268,1,8,0:0:0:0:
176,180,223648,6,0,B|144:161|109:155|75:160,1,90,4|8,0:0|0:0,0:0:0:0:
40,232,224407,2,0,L|44:296,1,45,2|2,0:0|0:0,0:0:0:0:
108,340,224977,2,0,B|152:348|152:348|180:336|180:336|232:356|288:328,1,180,4|4,0:0|0:0,0:0:0:0:
352,280,226116,2,0,L|424:256,1,45,4|8,0:0|0:0,0:0:0:0:
456,200,226686,6,0,B|477:152|469:99|440:61,1,135,4|2,0:0|0:0,0:0:0:0:
360,48,227635,1,2,0:0:0:0:
296,112,228015,2,0,B|248:120|248:120|144:104,1,135,4|8,0:0|0:0,0:0:0:0:
80,76,228964,1,2,0:0:0:0:
52,160,229344,1,8,0:0:0:0:
108,232,229724,6,0,L|120:352,1,90,4|8,0:0|0:0,0:0:0:0:
204,336,230483,2,0,B|245:305|294:293|340:300,1,135,2|4,0:0|0:0,0:0:0:0:
412,332,231433,6,0,B|439:307|454:273|456:240,1,90,4|4,0:0|0:0,0:0:0:0:
436,164,232192,1,4,0:0:0:0:
336,76,232762,6,0,B|264:52|264:52|192:68,1,135,4|4,0:0|0:0,0:0:0:0:
136,120,233711,1,4,0:0:0:0:
100,248,234281,2,0,B|109:299|159:331|207:320,1,135,4|4,0:0|0:0,0:0:0:0:
280,284,235230,1,4,0:0:0:0:
364,312,235610,6,0,B|416:296|416:296|436:192,1,135,4|8,0:0|0:0,0:0:0:0:
396,132,236559,2,0,B|419:87|470:68|515:80,2,135,2|4|8,0:0|0:0|0:0,0:0:0:0:
340,204,238078,1,2,0:0:0:0:
240,112,238648,6,0,B|176:96|176:128|92:112,1,135,4|8,0:0|0:0,0:0:0:0:
20,92,239597,2,0,B|12:156|12:156|32:236,1,135,2|4,0:0|0:0,0:0:0:0:
100,276,240546,6,0,B|146:279|187:295,1,90,4|4,0:0|0:0,0:0:0:0:
268,332,241306,2,0,L|293:295,1,45,4|4,0:0|0:3,0:0:0:0:
376,264,241876,6,0,L|504:256,2,90,4|8|2,0:0|0:0|0:0,0:0:0:0:
272,176,243205,2,0,L|137:184,1,135,2|8,0:0|0:0,0:0:0:0:
68,128,244154,1,2,0:0:0:0:
116,52,244534,1,8,0:0:0:0:
204,64,244914,6,0,B|259:74|312:60,1,90,4|8,0:0|0:0,0:0:0:0:
380,44,245673,2,0,B|432:57|463:109|452:159,2,135,2|2|8,0:0|0:0|0:0,0:0:0:0:
292,64,247192,2,0,L|299:184,1,90,2|8,0:0|0:0,0:0:0:0:
292,244,247952,6,0,B|252:272|252:272|212:256|159:268,1,135,4|4,0:0|0:0,0:0:0:0:
84,304,248901,1,4,0:0:0:0:
60,216,249281,2,0,L|63:126,1,90,4|4,0:0|0:0,0:0:0:0:
100,48,250040,6,0,B|118:-9|210:-15|239:77|185:125|137:113,1,225,4|0,0:0|0:0,0:0:0:0:
256,192,251179,12,0,257065,0:0:0:0:
